dead-donkey.com
20.02.18 Fangoria returns!
21.07.13 Nightbreed: The Cabal...
16.02.13 Fist of Jesus (2013)
15.09.12 Videodrome remake
08.09.12 phpBB upgrade and ser...
05.08.12 Site updates and patc...
09.06.12 Mad God on Kickstarte...
23.05.12 Carmageddon on Kickst...
29.04.12 Mel Gibson in Machete...
29.04.12 Forum registrations o...
21.04.12 Prometheus
06.02.12 Dead-Donkey Twitter,...
17.11.19 Bigfoot Country (2017)
11.11.19 Warning Sign (1985)
10.11.19 Tone-deaf (2019)
09.11.19 Strange Nature (2018)
08.11.19 Piranha (2010)
07.11.19 Trench 11 (2017)
Navigation
Thu 21 Nov, 2019
· Site Map
· Frontpage
· Scifi Forums
· HHAH Forums
· Fileheaven Forums
 
Edonkey Links
· Movies
· Games
· Series
· Collections
· Old Movie Archive
 
News
· All
· Site News
· Horror News
· Movie News
· Games News
· P2P News
· News Archive
 
Reviews
· Movie Reviews
· Game Reviews
· Series Reviews
 
Help
· Emule FAQ
· Encoding FAQ
· Playback / Codec FAQ
· Site FAQ
 
Downloads
· Client Downloads
· Codec Downloads
· Utility Downloads
· Misc Downloads
 
Links
· P2P Links
· Horror Links
· Movie Links
· Resource Links
 
Reptilicus (1961)

Comment
Some sort of a Godzilla-like snake comes to destroy us all, and it has been found in Denmark! Now THAT's scary!

Quote:
[size=200]Reptilicus (1961)

http://i389.photobucket.com/albums/oo337/AndreiShareTheFiles/Reptilicus-cdcovers_cc-front.jpg

http://www.imdb.com/title/tt0056405/

Quote:
A portion of the tail of a prehistoric reptile is discovered in Denmark. It regenerates into the entire reptile, which proceeds to destroy buildings and property and generally make a nuisance of itself. It can fly, swim, and walk, and has impenetrable scales, which makes it difficult to kill.


Code:
General
Complete name : Reptilicus.(1961).(English.Dubbed).FS.DVDRip.DivX5.avi
Format : AVI
Format/Info : Audio Video Interleave
File size : 700 MiB
Duration : 1h 21mn
Overall bit rate : 1 201 Kbps
Writing application : Nandub v1.0rc2
Writing library : Nandub build 1853/release

Video
Format : MPEG-4 Visual
Format settings, BVOP : Yes
Format settings, QPel : No
Format settings, GMC : No warppoints
Format settings, Matrix : Default
Muxing mode : Packet Bitstream
Codec ID : DX50
Codec ID/Hint : DivX 5
Duration : 1h 21mn
Bit rate : 1 091 Kbps
Width : 480 pixels
Height : 352 pixels
Display aspect ratio : 4/3
Frame rate : 29.970 fps
Resolution : 24 bits
Colorimetry : 4:2:0
Scan type : Progressive
Bits/(Pixel*Frame) : 0.215
Stream size : 636 MiB (91%)
Writing library : DivX 5.0.3 (UTC 2003-01-24)

Audio
Format : MPEG Audio
Format version : Version 1
Format profile : Layer 3
Codec ID : 55
Codec ID/Hint : MP3
Duration : 1h 21mn
Bit rate mode : Constant
Bit rate : 96.0 Kbps
Channel(s) : 1 channel
Sampling rate : 48.0 KHz
Resolution : 16 bits
Stream size : 56.0 MiB (8%)
Alignment : Aligned on interleaves
Interleave, duration : 24 ms (0.72 video frame)
Interleave, preload duration : 480 ms
Writing library : LAME3.93
Encoding settings : CBR


http://i389.photobucket.com/albums/oo337/AndreiShareTheFiles/Reptilicus196113522214-00-28.png
http://i389.photobucket.com/albums/oo337/AndreiShareTheFiles/Reptilicus196100582913-59-47.png
http://i389.photobucket.com/albums/oo337/AndreiShareTheFiles/Reptilicus196102833713-59-52.png
http://i389.photobucket.com/albums/oo337/AndreiShareTheFiles/Reptilicus196104865913-59-56.png
http://i389.photobucket.com/albums/oo337/AndreiShareTheFiles/Reptilicus196110866814-00-13.png
http://i389.photobucket.com/albums/oo337/AndreiShareTheFiles/Reptilicus196113776214-00-44.png

Reptilicus.(1961).(English.Dubbed).FS.DVDRip.DivX5.avi (700 MB) [Stats]

Format: DivX/XviD
Source: DVD
Category: Monster Movie
Sub-Category: None
Date: 03 May, 2009
Hits: 4026
Score: None
Submitter: Slayer
Add this entry to facebook Add this entry to Del.icio.us Add this entry to stumbleupon
View original forum thread: Reptilicus (1961) (2 Replies)
Advertisement
 
Donation
· Help out
· Donations
· Affilate Schemes
· Feedback
 
Site Search

[Advanced Search]
 
Polls
What is the most important factor that makes you watch a horror movie?
IMDb rating or comments
Cover or poster (design, gore, atmosphere)
Screenshot pictures taken from the movie
Plot outline (background story)
Posts on dead-donkey rating the movie as good or bad
Persons involved (actors, producer, director)
Something else ... I will post it below.
  
pollcode.com free polls
 
Theme
 
Login
Username:

Password:


[Not Registered?]
[Forgot Password?]
 

Disclaimer
The content of this website was created for dead-donkey.com, but may be published freely with reference.
Submitted reviews are owned by the original author who should be contacted for permission on reproduction or publication. All referenced movies, games, and literature are property of their respective owners.
All ed2k links submitted are unfiltered, unmoderated, and unedited, and are provided as-is from hashlinks found freely on the edonkey2000 network and exist regardless of this site.
Their validity, legality and content is subject to the end users usage. Any harm encounted through such use is the responsability of the user.


This site's code was written by Spud The Destroyer for www.dead-donkey.com 2005+