dead-donkey.com
21.07.13 Nightbreed: The Cabal...
07.03.13 Return to Nuke Em Hig...
16.02.13 Fist of Jesus (2013)
15.09.12 Videodrome remake
08.09.12 phpBB upgrade and ser...
05.08.12 Site updates and patc...
09.06.12 Mad God on Kickstarte...
23.05.12 Carmageddon on Kickst...
29.04.12 Mel Gibson in Machete...
29.04.12 Forum registrations o...
21.04.12 Prometheus
06.02.12 Dead-Donkey Twitter,...
23.07.14 Zombie Strippers (2008)
29.06.14 Bigfoot (2012)
12.05.14 Watchmen: Midnight (201...
10.05.14 Zombie Ass: Toilet Of T...
03.05.14 Dawn Of The Dead - Exte...
26.04.14 Velocity Trap (1999)
Navigation
Thu 24 Jul, 2014
· Site Map
· Frontpage
· Scifi Forums
· HHAH Forums
· Fileheaven Forums
 
Edonkey Links
· Movies
· Games
· Series
· Collections
· Old Movie Archive
 
News
· All
· Site News
· Horror News
· Movie News
· Games News
· P2P News
· News Archive
 
Reviews
· Movie Reviews
· Game Reviews
· Series Reviews
 
Help
· Emule FAQ
· Encoding FAQ
· Playback / Codec FAQ
· Site FAQ
 
Downloads
· Client Downloads
· Codec Downloads
· Utility Downloads
· Misc Downloads
 
Links
· P2P Links
· Horror Links
· Movie Links
· Resource Links
 
Devil Fetus (1983)

Comment
Japanese film. Weird stuff. Go click! Choice between two rips.

Quote:
[size=200]Devil Fetus
Mo Tai

http://f.imagehost.org/0642/img003.jpg
http://f.imagehost.org/0733/img002.jpg
http://www.imdb.com/title/tt0085953/

Plot
Quote:
The film opens with a girl who buys a statue in an auction, from where at night a monster gets out of, and it does exactly what monsters out of statues usually do: it rapes the girl. At this time you think that the girl will produce an offspring that jumps out of her womb and kills various people in many gory ways, right? Wrong! The confusing story deals with possessed people, dogs and furniture, who attack various people and try to finish them off. They don't succeed most of the time. Then why is this called DEVIL FETUS, you ask? Don't ask me, I have not the slightest idea. But who needs a fetus when the movie is as entertaining as this one, with a few outstanding setpieces and gory highlights?


http://f.imagehost.org/0365/Devil_Fetus_1983_xvid_dvdrip_yb_012762_21-06-02.png
http://f.imagehost.org/0976/Devil_Fetus_1983_xvid_dvdrip_yb_020751_21-16-37.png
http://f.imagehost.org/0376/Devil_Fetus_1983_xvid_dvdrip_yb_034386_21-17-56.png
http://f.imagehost.org/0274/Devil_Fetus_1983_xvid_dvdrip_yb_083498_21-13-48.png
http://f.imagehost.org/0669/Devil_Fetus_1983_xvid_dvdrip_yb_084140_21-14-23.png
http://f.imagehost.org/0587/Devil_Fetus_1983_xvid_dvdrip_yb_113814_21-09-35.png
http://f.imagehost.org/0484/Devil_Fetus_1983_xvid_dvdrip_yb_125672_21-20-22.png

[size=80]
General
Complete name : Devil.Fetus.1983.xvid.dvdrip.yb.avi
Format : AVI
Format/Info : Audio Video Interleave
File size : 699 MiB
Duration : 1h 27mn
Overall bit rate : 1 119 Kbps
Writing application : VirtualDubMod 1.5.4.1 (build 2178/release)
Writing library : VirtualDubMod build 2178/release
IAS1 : Chinese
Video
Format : MPEG-4 Visual
Format profile : Streaming Video@L1
Format settings, BVOP : Yes
Format settings, QPel : No
Format settings, GMC : No warppoints
Format settings, Matrix : Custom
Codec ID : XVID
Codec ID/Hint : XviD
Duration : 1h 27mn
Bit rate : 1 009 Kbps
Width : 624 pixels
Height : 272 pixels
Display aspect ratio : 2.25
Frame rate : 29.970 fps
Resolution : 24 bits
Colorimetry : 4:2:0
Scan type : Progressive
Bits/(Pixel*Frame) : 0.198
Stream size : 631 MiB (90%)
Writing library : XviD 1.2.0.dev47 (UTC 2006-11-01)
Audio
Format : MPEG Audio
Format version : Version 1
Format profile : Layer 3
Codec ID : 55
Codec ID/Hint : MP3
Duration : 1h 27mn
Bit rate mode : Variable
Bit rate : 95.6 Kbps
Minimum bit rate : 112 Kbps
Channel(s) : 2 channels
Sampling rate : 44.1 KHz
Resolution : 16 bits
Stream size : 59.7 MiB (9%)
Alignment : Aligned on interleaves
Interleave, duration : 26 ms (0.78 video frame)
Interleave, preload duration : 528 ms
Writing library : LAME3.97
Encoding settings : ABR



DVD-Rip (Cantonese)
Devil.Fetus.1983.xvid.dvdrip.yb.avi (699 MB) [Stats]

Subs (Englisch) (sub/idx)
Devil.Fetus.1983.xvid.dvdrip.yb.eng.subs.zip (431 KB) [Stats]

srt subs as attachment below; thx junkboy and spud


miniupload by me, so be patient.
if someone is able and wants to help spreading, feel free to do so
post the release on any board/forum you like.
if you post it, don't change the filename (add if necessarily) and be available as a source.

Trailer
http://www.youtube.com/v/L_wxRQIRPUI

Format: DivX/XviD
Source: DVD
Category: Splatter
Sub-Category: Asian
Date: 13 May, 2009
Hits: 3679
Score: None
Submitter: Slayer
Add this entry to facebook Add this entry to Del.icio.us Add this entry to stumbleupon
View original forum thread: Devil Fetus (1983) (13 Replies)
Advertisement
 
Donation
· Help out
· Donations
· Affilate Schemes
· Feedback
 
Site Search

[Advanced Search]
 
Polls
What is the most important factor that makes you watch a horror movie?
IMDb rating or comments
Cover or poster (design, gore, atmosphere)
Screenshot pictures taken from the movie
Plot outline (background story)
Posts on dead-donkey rating the movie as good or bad
Persons involved (actors, producer, director)
Something else ... I will post it below.
  
pollcode.com free polls
 
Theme
 
Login
Username:

Password:


[Not Registered?]
[Forgot Password?]
 

Disclaimer
The content of this website was created for dead-donkey.com, but may be published freely with reference.
Submitted reviews are owned by the original author who should be contacted for permission on reproduction or publication. All referenced movies, games, and literature are property of their respective owners.
All ed2k links submitted are unfiltered, unmoderated, and unedited, and are provided as-is from hashlinks found freely on the edonkey2000 network and exist regardless of this site.
Their validity, legality and content is subject to the end users usage. Any harm encounted through such use is the responsability of the user.


This site's code was written by Spud The Destroyer for www.dead-donkey.com 2005+