dead-donkey.com
21.07.13 Nightbreed: The Cabal...
07.03.13 Return to Nuke Em Hig...
16.02.13 Fist of Jesus (2013)
15.09.12 Videodrome remake
08.09.12 phpBB upgrade and ser...
05.08.12 Site updates and patc...
09.06.12 Mad God on Kickstarte...
23.05.12 Carmageddon on Kickst...
29.04.12 Mel Gibson in Machete...
29.04.12 Forum registrations o...
21.04.12 Prometheus
06.02.12 Dead-Donkey Twitter,...
15.12.17 Crazies, The (2010)
10.12.17 Mist, The (2007)
09.12.17 Eden Lake (2008)
08.12.17 I Spit On Your Grave (2...
03.12.17 Hatchet III (2013)
02.12.17 Hatchet II (2010)
Navigation
Fri 15 Dec, 2017
· Site Map
· Frontpage
· Scifi Forums
· HHAH Forums
· Fileheaven Forums
 
Edonkey Links
· Movies
· Games
· Series
· Collections
· Old Movie Archive
 
News
· All
· Site News
· Horror News
· Movie News
· Games News
· P2P News
· News Archive
 
Reviews
· Movie Reviews
· Game Reviews
· Series Reviews
 
Help
· Emule FAQ
· Encoding FAQ
· Playback / Codec FAQ
· Site FAQ
 
Downloads
· Client Downloads
· Codec Downloads
· Utility Downloads
· Misc Downloads
 
Links
· P2P Links
· Horror Links
· Movie Links
· Resource Links
 
1000 Years Cat, The (1992)

Comment
Yeah, well, what can I say? Weird, of course. But funny too. And interesting. Worth a watch.

Quote:
[size=200]The 1000 Years Cat
The Cat
Wei Si Li zhi lao mao

http://g.imagehost.org/0003/img006.jpghttp://g.imagehost.org/0263/img007.jpg
http://www.imdb.com/title/tt0105796/

Plot
Quote:
Writer and adventurer Wisely gets involved when a cat from outer space wreaks havoc. But the cat and it's human friends, a young girl and an old man, are really on earth to chase a killer from space! This "star killer" possesses people and finally turns itself into a giant slimy monster. Now it's up to Wisely and the strange cat to save earth from mortal danger...

Hong Kong's popular character Wisely returns for another movie adventure. He was played by such popular actors as Yun-Fat Chow in "The Seventh Curse" or Samuel Hui Koon-Kit in "The Legend of the Golden Pearl", however this time it's the turn of Waisee Lee Chi-Hung. It's weirdness everywhere with slimy and gory special effects and a bloody fight between the cat and a dog! One of only very few attempts by the film industry of Hong Kong at science-fiction, this is a must-have for fans of strange movies.


http://g.imagehost.org/0648/The_1000_Years_Cat_1992_yb_006359_20-54-20.png
http://g.imagehost.org/0051/The_1000_Years_Cat_1992_yb_022290_20-57-06.png
http://g.imagehost.org/0455/The_1000_Years_Cat_1992_yb_048732_21-00-32.png
http://g.imagehost.org/0764/The_1000_Years_Cat_1992_yb_079880_21-02-26.png
http://g.imagehost.org/0067/The_1000_Years_Cat_1992_yb_104679_21-05-42.png

[size=80]General
Complete name : The.1000.Years.Cat.1992.xvid.dvdrip.yb.avi
Format : AVI
Format/Info : Audio Video Interleave
File size : 700 MiB
Duration : 1h 24mn
Overall bit rate : 1 153 Kbps
Writing application : VirtualDubMod 1.5.4.1 (build 2178/release)
Writing library : VirtualDubMod build 2178/release
IAS1 : Chinese
Video
Format : MPEG-4 Visual
Format profile : Streaming Video@L1
Format settings, BVOP : Yes
Format settings, QPel : No
Format settings, GMC : No warppoints
Format settings, Matrix : Custom
Codec ID : XVID
Codec ID/Hint : XviD
Duration : 1h 24mn
Bit rate : 1 047 Kbps
Width : 704 pixels
Height : 400 pixels
Display aspect ratio : 16/9
Frame rate : 23.976 fps
Resolution : 24 bits
Colorimetry : 4:2:0
Scan type : Progressive
Bits/(Pixel*Frame) : 0.155
Stream size : 635 MiB (91%)
Writing library : XviD 1.2.0.dev47 (UTC 2006-11-01)
Audio
Format : MPEG Audio
Format version : Version 1
Format profile : Layer 3
Codec ID : 55
Codec ID/Hint : MP3
Duration : 1h 24mn
Bit rate mode : Variable
Bit rate : 94.3 Kbps
Minimum bit rate : 112 Kbps
Channel(s) : 2 channels
Sampling rate : 44.1 KHz
Resolution : 16 bits
Stream size : 57.2 MiB (8%)
Alignment : Aligned on interleaves
Interleave, duration : 26 ms (0.63 video frame)
Interleave, preload duration : 466 ms
Writing library : LAME3.97
Encoding settings : ABR



DVD-Rip (Cantonese)
The.1000.Years.Cat.1992.xvid.dvdrip.yb.avi (700 MB) [Stats]
Subs (English) (srt)
The.1000.Years.Cat.1992.yb.srt (29 KB) [Stats]

for some reason i don't know (aliens?) the subs won't start until fatty starts to knock on the door.
it's the same on the dvd.

miniupload by me, so be patient.
support yourself mutually
if someone is able and wants to help spreading, feel free to do so
post the release on any board/forum you like.
if you post it, don't change the filename (add if necessarily) and be available as a source.

the incredible cat vs dog fight szene is worth the download
watch the trailer!

Trailer
http://www.youtube.com/watch?v=elITjaz7Y1Y

Format: DivX/XviD
Source: DVD
Category: Asian
Sub-Category: None
Date: 27 Nov, 2009
Hits: 4004
Score: None
Submitter: Slayer
Add this entry to facebook Add this entry to Del.icio.us Add this entry to stumbleupon
View original forum thread: The 1000 Years Cat (1992) (8 Replies)
Advertisement
 
Donation
· Help out
· Donations
· Affilate Schemes
· Feedback
 
Site Search

[Advanced Search]
 
Polls
What is the most important factor that makes you watch a horror movie?
IMDb rating or comments
Cover or poster (design, gore, atmosphere)
Screenshot pictures taken from the movie
Plot outline (background story)
Posts on dead-donkey rating the movie as good or bad
Persons involved (actors, producer, director)
Something else ... I will post it below.
  
pollcode.com free polls
 
Theme
 
Login
Username:

Password:


[Not Registered?]
[Forgot Password?]
 

Disclaimer
The content of this website was created for dead-donkey.com, but may be published freely with reference.
Submitted reviews are owned by the original author who should be contacted for permission on reproduction or publication. All referenced movies, games, and literature are property of their respective owners.
All ed2k links submitted are unfiltered, unmoderated, and unedited, and are provided as-is from hashlinks found freely on the edonkey2000 network and exist regardless of this site.
Their validity, legality and content is subject to the end users usage. Any harm encounted through such use is the responsability of the user.


This site's code was written by Spud The Destroyer for www.dead-donkey.com 2005+