dead-donkey.com
21.07.13 Nightbreed: The Cabal...
07.03.13 Return to Nuke Em Hig...
16.02.13 Fist of Jesus (2013)
15.09.12 Videodrome remake
08.09.12 phpBB upgrade and ser...
05.08.12 Site updates and patc...
09.06.12 Mad God on Kickstarte...
23.05.12 Carmageddon on Kickst...
29.04.12 Mel Gibson in Machete...
29.04.12 Forum registrations o...
21.04.12 Prometheus
06.02.12 Dead-Donkey Twitter,...
24.08.14 Battle Of Los Angeles (...
31.07.14 She Creature (2001)
29.07.14 RIPD (2013)
25.07.14 Brotherhood Of Blood (2...
23.07.14 Zombie Strippers (2008)
29.06.14 Bigfoot (2012)
Navigation
Thu 28 Aug, 2014
· Site Map
· Frontpage
· Scifi Forums
· HHAH Forums
· Fileheaven Forums
 
Edonkey Links
· Movies
· Games
· Series
· Collections
· Old Movie Archive
 
News
· All
· Site News
· Horror News
· Movie News
· Games News
· P2P News
· News Archive
 
Reviews
· Movie Reviews
· Game Reviews
· Series Reviews
 
Help
· Emule FAQ
· Encoding FAQ
· Playback / Codec FAQ
· Site FAQ
 
Downloads
· Client Downloads
· Codec Downloads
· Utility Downloads
· Misc Downloads
 
Links
· P2P Links
· Horror Links
· Movie Links
· Resource Links
 
Cementerio Del Terror (1985)

Comment
Halloween in Spain and an executed serial killer gets resurrected alongside with several other undead. Nice classic horror atmosphere.

Quote:
http://i224.photobucket.com/albums/dd139/redveil/Cementerio%20Del%20Terror%201985/CementerioDelTerrorMoviePoster.png

Code:
*******************************************************************************
-=@ Cemetery Of Terror @=-
*******************************************************************************

-------------------------------------------------------------------------------
General Information
-------------------------------------------------------------------------------

General
Complete name : Cemetery.Of.Terror.1985.DvdRip.Xvid.Video-Man.avi

Format : AVI
Format/Info : Audio Video Interleave
File size : 701 MiB
Duration : 1h 31mn
Overall bit rate : 1 074 Kbps
Writing application : VirtualDubMod 1.5.10.2 (build 2540/release)
Writing library : VirtualDubMod build 2540/release

Video
Format : MPEG-4 Visual
Format profile : Streaming Video@L1
Format settings, BVOP : Yes
Format settings, QPel : No
Format settings, GMC : No warppoints
Format settings, Matrix : Default
Muxing mode : Packed bitstream
Codec ID : XVID
Codec ID/Hint : XviD
Duration : 1h 31mn
Bit rate : 1 001 Kbps
Width : 512 pixels
Height : 384 pixels
Display aspect ratio : 4/3
Frame rate : 23.976 fps
Resolution : 24 bits
Colorimetry : 4:2:0
Scan type : Progressive
Bits/(Pixel*Frame) : 0.212
Stream size : 653 MiB (93%)
Writing library : XviD 1.1.2 (UTC 2006-11-01)

Audio
Format : MPEG Audio
Format version : Version 2
Format profile : Layer 3
Codec ID : 55
Codec ID/Hint : MP3
Duration : 1h 31mn
Bit rate mode : Constant
Bit rate : 64.0 Kbps
Channel(s) : 2 channels
Sampling rate : 22.05 KHz
Resolution : 16 bits
Stream size : 41.8 MiB (6%)
Alignment : Split accross interleaves
Interleave, duration : 42 ms (1.00 video frame)
Interleave, preload duration : 500 ms
Writing library : LAME3.90.3



Video Format.........: xvid
Source...............: DVD 4x3
Original Format......: NTSC
Genre................: horror
IMDb Rating..........: 5.1
Movie Information....: http://www.imdb.com/title/tt0218088/

-------------------------------------------------------------------------------
Post Information
-------------------------------------------------------------------------------
Posted by............: video-man

-------------------------------------------------------------------------------
Release Notes
-------------------------------------------------------------------------------
2pass encode

subs ..... english

Plot:
A professor suspects that a vicious killer may have discovered a way to return
from the grave and continue his violent spree...

cast..
Hugo Stiglitz ... Dr. Cardan (as Hugo Stieglitz)
José Gómez Parcero ... Devlon
Erika Buenfil ... Lena
Edna Bolkan ... Olivia
María Rebeca ... Anita
Servando Manzetti ... Jorge (as Cervando Manzetti)
Eduardo Capetillo ... Tony
René Cardona III ... Oscar
César Velasco ... César
Andrés García Jr. ... Pedro
César Adrian Sanchez ... Raúl
Jacqueline Castro ... Mariana
Raúl Meraz ... Captain Ancira
Leo Villanueva ... Official Pineda
Usi Velasco ... Usi



-------------------------------------------------------------------------------
Generated with Cool NFO Creator - http://fly.to/coolbeans
-------------------------------------------------------------------------------


http://i224.photobucket.com/albums/dd139/redveil/Cementerio%20Del%20Terror%201985/CEME1985_01.jpg



ED2K download link:
Movie: Cemetery.Of.Terror.1985.DvdRip.Xvid.Video-Man.avi (701 MB) [Stats]
English subtitles: Cemetery.Of.Terror.1985.DvdRip.Xvid.Video-Man.srt (42 KB) [Stats]

Thanks to:
video-man - for the rip

Notes:
Movie is Spanish, so be sure to grab the English subtitles if you need so!
I spell checked the subtitles. You can also get them from .

Format: DivX/XviD
Source: DVD
Category: Slasher
Sub-Category: Zombies
Date: 31 Jan, 2009
Hits: 3898
Score: None
Submitter: Slayer
Add this entry to facebook Add this entry to Del.icio.us Add this entry to stumbleupon
View original forum thread: Cementerio Del Terror (1985) (aka Cemetery Of Terror) (20 Replies)
Advertisement
 
Donation
· Help out
· Donations
· Affilate Schemes
· Feedback
 
Site Search

[Advanced Search]
 
Polls
What is the most important factor that makes you watch a horror movie?
IMDb rating or comments
Cover or poster (design, gore, atmosphere)
Screenshot pictures taken from the movie
Plot outline (background story)
Posts on dead-donkey rating the movie as good or bad
Persons involved (actors, producer, director)
Something else ... I will post it below.
  
pollcode.com free polls
 
Theme
 
Login
Username:

Password:


[Not Registered?]
[Forgot Password?]
 

Disclaimer
The content of this website was created for dead-donkey.com, but may be published freely with reference.
Submitted reviews are owned by the original author who should be contacted for permission on reproduction or publication. All referenced movies, games, and literature are property of their respective owners.
All ed2k links submitted are unfiltered, unmoderated, and unedited, and are provided as-is from hashlinks found freely on the edonkey2000 network and exist regardless of this site.
Their validity, legality and content is subject to the end users usage. Any harm encounted through such use is the responsability of the user.


This site's code was written by Spud The Destroyer for www.dead-donkey.com 2005+