dead-donkey.com
20.02.18 Fangoria returns!
21.07.13 Nightbreed: The Cabal...
16.02.13 Fist of Jesus (2013)
15.09.12 Videodrome remake
08.09.12 phpBB upgrade and ser...
05.08.12 Site updates and patc...
09.06.12 Mad God on Kickstarte...
23.05.12 Carmageddon on Kickst...
29.04.12 Mel Gibson in Machete...
29.04.12 Forum registrations o...
21.04.12 Prometheus
06.02.12 Dead-Donkey Twitter,...
07.12.19 Ready Or Not (2019)
02.12.19 Gnaw (2017)
02.12.19 American Guinea Pig: Th...
01.12.19 Flight Of The Living De...
30.11.19 Furies, The (2019)
25.11.19 Burn (2019)
Navigation
Sun 08 Dec, 2019
· Site Map
· Frontpage
· Scifi Forums
· HHAH Forums
· Fileheaven Forums
 
Edonkey Links
· Movies
· Games
· Series
· Collections
· Old Movie Archive
 
News
· All
· Site News
· Horror News
· Movie News
· Games News
· P2P News
· News Archive
 
Reviews
· Movie Reviews
· Game Reviews
· Series Reviews
 
Help
· Emule FAQ
· Encoding FAQ
· Playback / Codec FAQ
· Site FAQ
 
Downloads
· Client Downloads
· Codec Downloads
· Utility Downloads
· Misc Downloads
 
Links
· P2P Links
· Horror Links
· Movie Links
· Resource Links
 
Evilution (2008)

Comment
Nice story about a biological weapon going loose in Iraq and then there are zombies!

Quote:
Saw this on FH, but I didn't see any sources yet.

Evilution (2008) DVDRiP-XViD-SPRiNTER

http://lookpic.com/d2/i2/1696/7gfLqRhf.jpeg

Quote:
Genre : Horror

Tagline : The End is Here!

Plot : A microscopic alien life form has been discovered with the ability to possess the living and resurrect the dead. The United States Army has tried to communicate with it but failed. Instead, the military has tried to create a genetically altered version of the alien in order to resurrect dead soldiers on the battlefield. The alien fights back, turning soldier against soldier. Young scientist Darren Hall kidnaps the last pure specimen of the alien, determined to the reverse the damage inflicted and learn the secrets of life. Hiding in a mysterious building named The Necropolitan, he continues his experiments.


Code:
SPRiNTER proudly presents...

Evilution.2008.DVDRip.XviD-SPRiNTER
http://www.imdb.com/title/tt1032749
Subtitles: N/A

Date: 2010.04

Director: Chris Conlee
Genre: Horror
Plot: An alien bacterium resurrects the dead on Earth

Cast

Eric Peter-Kaiser ... Darren Hall
Sandra Ramrez ... Madeline 'Maddie' Gilbert
Tim Colceri ... Sgt. Gabriel Collins
Noel Gugliemi ... Random
Guillermo Daz ... Killah-B
James Duval ... Asia Mark
Nathan Bexton ... The Manager

Release notes

Enjoy

Greetings

NTX aAF FiCO HNR CiNEFiLE AEN HUMANiSM

Details

Format : AVI
Format/Info : Audio Video Interleave
File size : 696 MiB
Duration : 1h 30mn
Overall bit rate : 1 074 Kbps
Writing application : VirtualDubMod 1.5.10.2 (build 2540/release
Writing library : VirtualDubMod build 2540/release

Video
ID : 0
Format : MPEG-4 Visual
Format profile : Advanced SimpleL5
Format settings, BVOP : Yes
Format settings, QPel : No
Format settings, GMC : No warppoints
Format settings, Matrix : Default (H.263
Codec ID : XVID
Codec ID/Hint : XviD
Duration : 1h 30mn
Bit rate : 931 Kbps
Width : 608 pixels
Height : 336 pixels
Display aspect ratio : 16:9
Frame rate : 23.976 fps
Resolution : 8 bits
Colorimetry : 4:2:0
Scan type : Progressive
Bits/(PixelFrame) : 0.190
Stream size : 603 MiB (87
Writing library : XviD 1.2.1 (UTC 2008-12-04

Audio
ID : 1
Format : MPEG Audio
Format version : Version 1
Format profile : Layer 3
FormatSettingsMode : Joint stereo
FormatSettingsModeExtension : MS Stereo
Codec ID : 55
Codec ID/Hint : MP3
Duration : 1h 30mn
Bit rate mode : Variable
Bit rate : 130 Kbps
Nominal bit rate : 128 Kbps
Channel(s) : 2 channels
Sampling rate : 48.0 KHz
Stream size : 84.4 MiB (12
Alignment : Aligned on interleaves
Interleave, duration : 24 ms (0.58 video frame
Interleave, preload duration : 465 ms
Writing library : LAME3.90
Encoding settings : -m j -V 4 -q 2 -lowpass 17.6 --abr 128


http://www.imdb.com/title/tt1032749/

http://lookpic.com/d2/i2/1475/Sm4oWWZv.png

http://lookpic.com/d2/i2/2900/hebcsWS.png

http://lookpic.com/d2/i2/2631/SRxOAnEy.png

Evilution.2008.DVDRiP.XViD-SPRiNTER.avi (696 MB) [Stats]

Format: DivX/XviD
Source: DVD
Category: Zombies
Sub-Category: None
Date: 21 Aug, 2010
Hits: 4035
Score: None
Submitter: Slayer
Add this entry to facebook Add this entry to Del.icio.us Add this entry to stumbleupon
View original forum thread: Evilution (2008) (7 Replies)
Advertisement
 
Donation
· Help out
· Donations
· Affilate Schemes
· Feedback
 
Site Search

[Advanced Search]
 
Polls
What is the most important factor that makes you watch a horror movie?
IMDb rating or comments
Cover or poster (design, gore, atmosphere)
Screenshot pictures taken from the movie
Plot outline (background story)
Posts on dead-donkey rating the movie as good or bad
Persons involved (actors, producer, director)
Something else ... I will post it below.
  
pollcode.com free polls
 
Theme
 
Login
Username:

Password:


[Not Registered?]
[Forgot Password?]
 

Disclaimer
The content of this website was created for dead-donkey.com, but may be published freely with reference.
Submitted reviews are owned by the original author who should be contacted for permission on reproduction or publication. All referenced movies, games, and literature are property of their respective owners.
All ed2k links submitted are unfiltered, unmoderated, and unedited, and are provided as-is from hashlinks found freely on the edonkey2000 network and exist regardless of this site.
Their validity, legality and content is subject to the end users usage. Any harm encounted through such use is the responsability of the user.


This site's code was written by Spud The Destroyer for www.dead-donkey.com 2005+